X-Men: Apocalypse (2016) Hindi Dubbed 1CD Pre DvDSc Ripx264 AAC(2Ch) E.Sub Download

X-Men: Apocalypse (2016) Hindi Dubbed 1CD  Pre DvDSc Ripx264  AAC(2Ch) E.Sub Download

X-Men Apocalypse (2016) Hindi

General
Format                                   : Matroska
Format version                           : Version 2
File size                                : 700 MiB
Duration                                 : 2h 28mn
Overall bit rate                         : 660 Kbps

Video
Format                                   : AVC
Format/Info                              : Advanced Video Codec
Format profile                           : [email protected]
Format settings, CABAC                   : Yes
Format settings, ReFrames                : 5 frames
Codec ID                                 : V_MPEG4/ISO/AVC
Duration                                 : 2h 28mn
Bit rate                                 : 578 Kbps
Width                                    : 560 pixels
Height                                   : 272 pixels
Display aspect ratio                     : 2.059
Frame rate mode                          : Constant
Frame rate                               : 25.000 fps
Color space                              : YUV
Chroma subsampling                       : 4:2:0
Bit depth                                : 8 bits
Scan type                                : Progressive
Bits/(Pixel*Frame)                       : 0.152
Stream size                              : 613 MiB (88%)

Audio
Format                                   : AAC
Format/Info                              : Advanced Audio Codec
Format profile                           : HE-AAC / LC
Codec ID                                 : A_AAC
Duration                                 : 2h 28mn
Bit rate                                 : 80.0 Kbps
Channel(s)                               : 2 channels
Channel positions                        : Front: L R
Sampling rate                            : 48.0 KHz / 24.0 KHz
Stream size                              : 84.9 MiB (12%)

File size :- 700 MB

uptobox Download Link
bdupload. Download Link
arabloads. Download Link
indishare Download Link